Free Afican theme download

Tag Afican has 2 items

Free Videohive Giant Afican Snail 2 theme download

Free Videohive Giant Afican Snail 2 theme download

Category: Videohive | Stock Footage
Archives: 2016 | April 2016 | 21.April 2016

Giant Afican Snail 24K Video down scale to FHD 1920×1080 , 29.94PDetailsVideo Encoding : PhotoJPEGCodec ID ...de : LossyBits/(Pixel*Frame) : 2.495Stream size : 513 MiB (100%)

Free Videohive Giant Afican Snail 1 theme download

Free Videohive Giant Afican Snail 1 theme download

Category: Videohive | Stock Footage
Tags: nulled | free download | theme | script | rip | Videohive | Add Ons | Giant | Snail | Afican
Archives: 2016 | April 2016 | 21.April 2016

Giant Afican Snail 14K Video down scale to FHD 1920×1080 , 29.94PDetailsVideo Encoding : PhotoJPEGCodec ID ...de : LossyBits/(Pixel*Frame) : 3.775Stream size : 700 MiB (100%)

Login Free register

Search Free Themes Download

Read our recommendation

We using AbeloHost - Cheap SSD & VPS WebHosting with CPanel, simple and powerfull administration & high performace. Here is best support that we seen.

Go to AbeloHost >>

Free Themes Download Archives