Free Afican theme download

Tag Afican has 2 items

Free Videohive Giant Afican Snail 2 theme download

Free Videohive Giant Afican Snail 2 theme download

Category: Videohive | Stock Footage
Archives: 2016 | April 2016 | 21.April 2016

Giant Afican Snail 24K Video down scale to FHD 1920×1080 , 29.94PDetailsVideo Encoding : PhotoJPEGCodec ID ...de : LossyBits/(Pixel*Frame) : 2.495Stream size : 513 MiB (100%)

Free Videohive Giant Afican Snail 1 theme download

Free Videohive Giant Afican Snail 1 theme download

Category: Videohive | Stock Footage
Tags: nulled | free download | theme | script | rip | Videohive | Add Ons | Giant | Snail | Afican
Archives: 2016 | April 2016 | 21.April 2016

Giant Afican Snail 14K Video down scale to FHD 1920×1080 , 29.94PDetailsVideo Encoding : PhotoJPEGCodec ID ...de : LossyBits/(Pixel*Frame) : 3.775Stream size : 700 MiB (100%)

Login Free register

Search Free Themes Download

Free Themes Download Archives

  • Mon
  • Tue
  • Wed
  • Thu
  • Fri
  • Sat
  • Sun
  • 1
  • 2
  • 3
  • 4
  • 5
  • 6
  • 7
  • 8
  • 9
  • 10
  • 11
  • 12
  • 13
  • 14
  • 15
  • 16
  • 17
  • 18
  • 19
  • 20
  • 21
  • 22
  • 23
  • 24
  • 25
  • 26
  • 27
  • 28
  • 29
  • 30
  • 31