Free Videohive Snail Fast Walking 2 theme download

FREE DOWNLOAD links for Snail Fast Walking 2 is BELOW - click on the RED BUTTON. Logged-in users can see links to download above the main picture.

Category: Videohive | Stock Footage
Tags: Videohive | Add Ons | nulled | free download | theme | script | rip | Snail | Fast | Walking
In archive: 2016 | April 2016 | 21.April 2016


Videohive Snail Fast Walking 2 free download

Buy this item



Snail Fast Walking 24K Video down scale to FHD 1920×1080 , 29.94P

DetailsVideo Encoding : PhotoJPEG

Codec ID : qtFile size : 522 MiBDuration : 20s 853msOverall bit rate mode : VariableOverall bit rate : 210 Mbps

VideoFormat : JPEGCodec ID : jpegDuration : 20s 853msBit rate mode : VariableBit rate : 210 MbpsWidth : 1 920 pixelsHeight : 1 080 pixelsDisplay aspect ratio : 16:9Frame rate mode : ConstantFrame rate : 29.970 fpsColor space : YUVChroma subsampling : 4:2:2Bit depth : 8 bitsCompression mode : LossyBits/(Pixel*Frame) : 3.377Stream size : 522 MiB (100%)

Source: videohive.net
Report this item


Free download

Show FREE DOWNLOAD links



Related free downloads

Free download Videohive Athlete Sexy Woman Walking, With Long Hair Walking

Free Videohive Athlete Sexy Woman Walking, With Long Hair Walking theme download

Category: Videohive | Stock Footage
Tags: Videohive | Motion Graphics | nulled | free download | theme | script | rip | Athlete | Sexy | Woman | Walking, | with | Long | Hair | Walking
Archives: 2016 | April 2016 | 21.April 2016

athlete sexy woman walking, with long hair walking on a treadmill in the gym in front of panoramic windows with views of the snowy forest. She...ously and sports, she is confident, without sudden acceleration or deceleration. Nearby are several racetracks – obviously a professional gym.
Free download Graphicriver A Lion, a Snail and a Butterfly

Free Graphicriver A Lion, a Snail and a Butterfly theme download

Category: Graphicriver | Vectors
Tags: Videohive | Add Ons | nulled | free download | theme | script | rip | Lion, | Snail | and | Butterfly
Archives: 2016 | April 2016 | 21.April 2016

Illustration of a lion, a snail and a butterfly on a white background
Free download Videohive Apple and Snail

Free Videohive Apple and Snail theme download

Category: Videohive | Stock Footage
Tags: Videohive | Add Ons | nulled | free download | theme | script | rip | Apple | and | Snail
Archives: 2016 | April 2016 | 21.April 2016

Snail is a common name that is applied most often to land snails, terrestrial pulmonate gastropod molluscs. However, the common name “snail” i...t actually gastropods, such as the Monoplacophora, which superficially resemble small limpets, may also informally be referred to as “snails”.
Free download Videohive Snail Fast Walking

Free Videohive Snail Fast Walking theme download

Category: Videohive | Stock Footage
Tags: Videohive | Add Ons | nulled | free download | theme | script | rip | Snail | Fast | Walking
Archives: 2016 | April 2016 | 21.April 2016

Snail Fast Walking4K Video down scale to FHD 1920×1080 , 29.94PDetailsVideo Encoding : PhotoJPEGCodec ID ...de : LossyBits/(Pixel*Frame) : 3.673Stream size : 483 MiB (100%)


Free download Videohive Small Snail Slow Walking

Free Videohive Small Snail Slow Walking theme download

Category: Videohive | Stock Footage
Tags: Videohive | Add Ons | nulled | free download | theme | script | rip | Small | Snail | Slow | Walking
Archives: 2016 | April 2016 | 21.April 2016

Small Snail Slow Walking4K Video down scale to FHD 1920×1080 , 29.94PDetailsVideo Encoding : PhotoJPEGCodec ID ...de : LossyBits/(Pixel*Frame) : 3.349Stream size : 812 MiB (100%)
Free download Videohive A Young Woman Walking Down The Street, Eating Fast Food Using a Mobile Phone

Free Videohive A Young Woman Walking Down The Street, Eating Fast Food Using a Mobile Phone theme download

Category: Videohive | Stock Footage
Tags: Adult | Attractive | Business | Cell | eat | eating | Fast | Female | Food | Mobile | Phone | Snack | Unhealthy | Woman | Young | Videohive | Stock Footage | nulled | free download | theme | script | rip | Young | Woman | Walking | Down | Street, | eating | Fast | Food | Using | Mobile | Phone
Archives: 2016 | May 2016 | 17.May 2016

A young woman walking down the street, eating fast food using a mobile phone. Not healthy food, fast lifestyles. Fast Food and Technology
Free download Codecanyon Fast Slider - Easy and Fast - Slider Plugin for Wordpress

Free Codecanyon Fast Slider - Easy and Fast - Slider Plugin for Wordpress theme download

Category: Codecanyon | WordPress
Tags: easy slider | fast slider | Gallery | image slider | Showcase | Slide | Slider | Slides | Slideshow | vc slide | VC slider | Visual Composer slider | WordPress | wordpress slider | wp slider | Codecanyon | WordPress | nulled | free download | theme | script | rip | Fast | Slider | Easy | Plugin | WordPress
Archives: 2016 | June 2016 | 06.June 2016

Welcome to Fast Slider for Wordpress . With this awesome plugin you can build your slider in 1 minute. You can choose from 30+ ...stom code: css and jsAddon For Visual Composer includedTranslation Ready (include .po/.mo files)Video Tutorial

Login Free register

Search Free Themes Download

Free Themes Download Archives

  • Mon
  • Tue
  • Wed
  • Thu
  • Fri
  • Sat
  • Sun
  • 1
  • 2
  • 3
  • 4
  • 5
  • 6
  • 7
  • 8
  • 9
  • 10
  • 11
  • 12
  • 13
  • 14
  • 15
  • 16
  • 17
  • 18
  • 19
  • 20
  • 21
  • 22
  • 23
  • 24
  • 25
  • 26
  • 27
  • 28
  • 29
  • 30
  • 31