Free Videohive Small Snail Slow Walking theme download

FREE DOWNLOAD links for Small Snail Slow Walking is BELOW - click on the RED BUTTON. Logged-in users can see links to download above the main picture.

Category: Videohive | Stock Footage
Tags: Videohive | Add Ons | nulled | free download | theme | script | rip | Small | Snail | Slow | Walking
In archive: 2016 | April 2016 | 21.April 2016


Videohive Small Snail Slow Walking free download

Buy this item



Small Snail Slow Walking4K Video down scale to FHD 1920×1080 , 29.94P

DetailsVideo Encoding : PhotoJPEGCodec ID : qtFile size : 812 MiBDuration : 32s 732msOverall bit rate mode : VariableOverall bit rate : 208 Mbps

VideoFormat : JPEGCodec ID : jpegDuration : 32s 732msBit rate mode : VariableBit rate : 208 MbpsWidth : 1 920 pixelsHeight : 1 080 pixelsDisplay aspect ratio : 16:9Frame rate mode : ConstantFrame rate : 29.970 fpsColor space : YUVChroma subsampling : 4:2:2Bit depth : 8 bitsCompression mode : LossyBits/(Pixel*Frame) : 3.349Stream size : 812 MiB (100%)

Source: videohive.net
Report this item


Free download

Show FREE DOWNLOAD links



Related free downloads

Free download Videohive Athlete Sexy Woman Walking, With Long Hair Walking

Free Videohive Athlete Sexy Woman Walking, With Long Hair Walking theme download

Category: Videohive | Stock Footage
Tags: Videohive | Motion Graphics | nulled | free download | theme | script | rip | Athlete | Sexy | Woman | Walking, | with | Long | Hair | Walking
Archives: 2016 | April 2016 | 21.April 2016

athlete sexy woman walking, with long hair walking on a treadmill in the gym in front of panoramic windows with views of the snowy forest. She...ously and sports, she is confident, without sudden acceleration or deceleration. Nearby are several racetracks – obviously a professional gym.
Free download Graphicriver Cartoon Snail Slow Movie

Free Graphicriver Cartoon Snail Slow Movie theme download

Category: Graphicriver | Vectors
Tags: Videohive | Add Ons | nulled | free download | theme | script | rip | Cartoon | Snail | Slow | Movie
Archives: 2016 | April 2016 | 21.April 2016

Cartoon Snail Slow Movie. 100% Vector Editable File
Free download Videohive Snail Fast Walking

Free Videohive Snail Fast Walking theme download

Category: Videohive | Stock Footage
Tags: Videohive | Add Ons | nulled | free download | theme | script | rip | Snail | Fast | Walking
Archives: 2016 | April 2016 | 21.April 2016

Snail Fast Walking4K Video down scale to FHD 1920×1080 , 29.94PDetailsVideo Encoding : PhotoJPEGCodec ID ...de : LossyBits/(Pixel*Frame) : 3.673Stream size : 483 MiB (100%)
Free download Videohive Snail Fast Walking 2

Free Videohive Snail Fast Walking 2 theme download

Category: Videohive | Stock Footage
Tags: Videohive | Add Ons | nulled | free download | theme | script | rip | Snail | Fast | Walking
Archives: 2016 | April 2016 | 21.April 2016

Snail Fast Walking 24K Video down scale to FHD 1920×1080 , 29.94PDetailsVideo Encoding : PhotoJPEGCodec ID ...de : LossyBits/(Pixel*Frame) : 3.377Stream size : 522 MiB (100%)
Free download Videohive Big And Small Snail

Free Videohive Big And Small Snail theme download

Category: Videohive | Stock Footage
Tags: Videohive | Add Ons | nulled | free download | theme | script | rip | Big | and | Small | Snail
Archives: 2016 | April 2016 | 21.April 2016

Big And Small Snail4K Video down scale to FHD 1920×1080 , 29.94PDetailsVideo Encoding : PhotoJPEGCodec ID ...de : LossyBits/(Pixel*Frame) : 3.054Stream size : 951 MiB (100%)


Free download Graphicriver A Small Girl and a Small Boy Playing

Free Graphicriver A Small Girl and a Small Boy Playing theme download

Category: Graphicriver | Vectors
Tags: Videohive | Add Ons | nulled | free download | theme | script | rip | Small | Girl | and | Boy | Playing
Archives: 2016 | April 2016 | 21.April 2016

Illustration of a small girl and a small boy playing on a white background
Free download Videohive Woman is Walking With a Black Small Dog Man

Free Videohive Woman is Walking With a Black Small Dog Man theme download

Category: Videohive | Stock Footage
Tags: Graphicriver | Graphics | nulled | free download | theme | script | rip | Woman | Walking | with | Black | Small | Dog | Man
Archives: 2016 | April 2016 | 21.April 2016

Person is Walking With a Black Small Dog by a Green Meadow at the River Bank, Owner in Blue Jacket, Man is Walking at the River, Two People Ar...w Toward Camera, Small Privat Houses on a Horizon, Bare Branches Trees at the Other Bank, Cloudy Day, Cumulus, Gray Sky, Mild Winter, Outdoors
Free download Videohive A Slow River Seen Through the Woods of a Green Forest

Free Videohive A Slow River Seen Through the Woods of a Green Forest theme download

Category: Videohive | Stock Footage
Tags: Codecanyon | JavaScript | nulled | free download | theme | script | rip | Slow | River | Seen | Through | The | Woods | Green | Forest
Archives: 2016 | April 2016 | 26.April 2016

A slow River seen through the Woods of a Green Forest, you can see the beautiful Reflection of the Summer Sun Light on the Leaves and on the Branches.
Free download Videohive Slow Motion Girl Walking Through Rye Field

Free Videohive Slow Motion Girl Walking Through Rye Field theme download

Category: Videohive | Stock Footage
Tags: Beautiful | Closeup | Field | Hand | Model | Nature | Rye | slow motion | Summer | Sun | Sunset | Walking | Warm | Videohive | Stock Footage | nulled | free download | theme | script | rip | Slow | Motion | Girl | Walking | Through | Field
Archives: 2016 | July 2016 | 24.July 2016

Gorgeous blonde walking through a field of rye in slow motion during a summery sunset, closeup of hand touching crops.

Login Free register

Search Free Themes Download

Free Themes Download Archives

  • Mon
  • Tue
  • Wed
  • Thu
  • Fri
  • Sat
  • Sun
  • 1
  • 2
  • 3
  • 4
  • 5
  • 6
  • 7
  • 8
  • 9
  • 10
  • 11
  • 12
  • 13
  • 14
  • 15
  • 16
  • 17
  • 18
  • 19
  • 20
  • 21
  • 22
  • 23
  • 24
  • 25
  • 26
  • 27
  • 28
  • 29
  • 30
  • 31