Free Graphicriver Ship on Giant Waves theme download

FREE DOWNLOAD links for Ship on Giant Waves is BELOW - click on the RED BUTTON. Logged-in users can see links to download above the main picture.

Category: Graphicriver | Vectors
Tags: Videohive | Stock Footage | nulled | free download | theme | script | rip | Ship | Giant | Waves
In archive: 2016 | April 2016 | 21.April 2016


Graphicriver Ship on Giant Waves free download

Buy this item



Illustration of a ship above the giant waves

Source: graphicriver.net
Report this item


Free download

Show FREE DOWNLOAD links



Related free downloads

Free download Graphicriver Giant Outdoor Billboard Mock-Up

Free Graphicriver Giant Outdoor Billboard Mock-Up theme download

Category: Graphicriver | Graphics
Tags: Themeforest | PSD Templates | nulled | free download | theme | script | rip | Giant | Outdoor | Billboard | Mock-up
Archives: 2016 | April 2016 | 20.April 2016

Tin Giant Outdoor Billboard Mock-Up to professionally present your designs.Features1 PSD (Photoshop) file. Fully editable ...tionals with one click.Help File.*The images of the samples are not included.If you like it, don´t forget to rate, thank you.
Free download Videohive Giant Afican Snail 1

Free Videohive Giant Afican Snail 1 theme download

Category: Videohive | Stock Footage
Tags: Videohive | Add Ons | nulled | free download | theme | script | rip | Giant | Afican | Snail
Archives: 2016 | April 2016 | 21.April 2016

Giant Afican Snail 14K Video down scale to FHD 1920×1080 , 29.94PDetailsVideo Encoding : PhotoJPEGCodec ID ...de : LossyBits/(Pixel*Frame) : 3.775Stream size : 700 MiB (100%)
Free download Videohive Giant Afican Snail 2

Free Videohive Giant Afican Snail 2 theme download

Category: Videohive | Stock Footage
Tags: Videohive | Add Ons | nulled | free download | theme | script | rip | Giant | Afican | Snail
Archives: 2016 | April 2016 | 21.April 2016

Giant Afican Snail 24K Video down scale to FHD 1920×1080 , 29.94PDetailsVideo Encoding : PhotoJPEGCodec ID ...de : LossyBits/(Pixel*Frame) : 2.495Stream size : 513 MiB (100%)
Free download Graphicriver Ship on Waves

Free Graphicriver Ship on Waves theme download

Category: Graphicriver | Vectors
Tags: Videohive | Stock Footage | nulled | free download | theme | script | rip | Ship | Waves
Archives: 2016 | April 2016 | 21.April 2016

Illustration of a ship above the giant waves


Free download Videohive Alien Worlds v2 : red planet with gas giant rising

Free Videohive Alien Worlds v2 : red planet with gas giant rising theme download

Category: Videohive | Motion Graphics
Tags: gas giant | Jupiter | Mars | red | red planet | science fiction | scifi | Space | Photodune | Misc | nulled | free download | theme | script | rip | Alien | Worlds | Planet | with | Giant | Rising
Archives: 2016 | May 2016 | 01.May 2016

A desolate dry & dusty red planet , but some structures in the landscape indicate that once life existed here once . Are those canyons f...the horizon , there’s a massive gas giant rising , fuzzy behind the red haze and clouds .another great background for your scifi scenes
Free download Videohive Giant Cinematic Demo

Free Videohive Giant Cinematic Demo theme download

Category: Videohive | After Effects Project Files
Tags: 3d | Animation | Demo | Folio | Image | Opener | Parallax | Perspective | Photo | Presentation | Reel | Simple | Slideshow | Trailer | Typo | Videohive | After Effects Project Files | nulled | free download | theme | script | rip | Giant | Cinematic | Demo
Archives: 2016 | May 2016 | 11.May 2016

Very easy to Edit and CustomizeStep by Step Video TutorialDrag and Drop your Footage, Edit Text and Re...in the project. link:pixabayMusic link:Epicness bySky-ProductionsThank you!
Free download Graphicriver Paper Ship on Waves

Free Graphicriver Paper Ship on Waves theme download

Category: Graphicriver | Vectors
Tags: Artwork | Bird | Blue | Boat | Cloud | Curl | Decoration | Emblem | Fold | handicraft | Made | Nature | Nautilus | Ocean | Origami | paperwork | Sail | Sailboat | Sea | Seagull | Shape | Ship | Shipping | Sky | Storm | Toy | Transport | Vessel | Wave | Wind | Graphicriver | Vectors | nulled | free download | theme | script | rip | Paper | Ship | Waves
Archives: 2016 | May 2016 | 22.May 2016

Origami paper ship on hand drawn sea waves vector illustration. Editable EPS and Render in JPG format
Free download Graphicriver Sailing Ship Floating On The Sea Waves.

Free Graphicriver Sailing Ship Floating On The Sea Waves. theme download

Category: Graphicriver | Vectors
Tags: Boat | caravel | Columbus | Cross | Cruise | engraved | Engraving | History | Illustration | isolated | Marine | Nautical | Ocean | old | Pirate | postmark | Sail | Sailboat | sailfish | Sailing | sailing ship | santa maria | Sea | Ship | Silhouette | Spain | Transportation | Vector | Vessel | Wave | Graphicriver | Vectors | nulled | free download | theme | script | rip | Sailing | Ship | Floating | Waves
Archives: 2016 | May 2016 | 22.May 2016

Sailing ship floating on the sea waves. Caravel Santa Maria with Columbus. Hand drawn design element. Vintage vector engraving illustration for poster, label, postmark. Isolated on blue background.

Login Free register

Search Free Themes Download

Free Themes Download Archives

  • Mon
  • Tue
  • Wed
  • Thu
  • Fri
  • Sat
  • Sun
  • 1
  • 2
  • 3
  • 4
  • 5
  • 6
  • 7
  • 8
  • 9
  • 10
  • 11
  • 12
  • 13
  • 14
  • 15
  • 16
  • 17
  • 18
  • 19
  • 20
  • 21
  • 22
  • 23
  • 24
  • 25
  • 26
  • 27
  • 28
  • 29
  • 30
  • 31