Free Videohive Giant Stone Shattering Opener theme download

FREE DOWNLOAD links for Giant Stone Shattering Opener is BELOW - click on the RED BUTTON. Logged-in users can see links to download above the main picture.

Category: Videohive | After Effects Project Files
Tags: Anniversary | Business | Cinematic | Construction | Display | Ground | Intro | Logo | Particles | Promo | Reveal | Rock | Show | tittle | Trailer | Videohive | After Effects Project Files | nulled | free download | theme | script | rip | Giant | Stone | Shattering | Opener
In archive: 2016 | June 2016 | 13.June 2016


Videohive Giant Stone Shattering Opener free download

Buy this item



Features:

  • NO plugin required
  • Works with any Logo,any Text,any image,
  • Compatible with all language of After Effects
  • PDF help file included
Requirement:

After effects CS5 or later version

Others:

Music used in the preview video can be purchased HereandHereSound fx01Sound fx02Sound fx03

This template is good for Epic opener,logo reveal,photo show,video or movie trailer,anniversary,product promotion,youtube opener,game video opener,company logo,short film opener,and more.

Source: videohive.net
Report this item


Free download

Show FREE DOWNLOAD links



Related free downloads

Free download Videohive Pavement,paving Stone,curb Stone,wrought Iron Gate

Free Videohive Pavement,paving Stone,curb Stone,wrought Iron Gate theme download

Category: Videohive | Stock Footage
Tags: Videohive | Apple Motion Templates | nulled | free download | theme | script | rip | Pavement,paving | Stone,curb | Stone,wrought | Iron | Gate
Archives: 2016 | April 2016 | 20.April 2016

pavement paving stone curb stone wrought iron gate iron pillar post slider full HD camera motion
Free download Videohive Stone therapy, Leg Massage, Hot Stone Massage

Free Videohive Stone therapy, Leg Massage, Hot Stone Massage theme download

Category: Videohive | Stock Footage
Tags: Photodune | Misc | nulled | free download | theme | script | rip | Stone | therapy, | Leg | Massage, | Hot | Massage
Archives: 2016 | April 2016 | 20.April 2016

Stone therapy, massage stones, deep relaxation, harmony, spa, spa treatments, hot stone massage, leg massage
Free download Graphicriver Stone Giant 2D Game Character Sprites 24

Free Graphicriver Stone Giant 2D Game Character Sprites 24 theme download

Category: Graphicriver | Game Assets
Tags: Photodune | Misc | nulled | free download | theme | script | rip | Stone | Giant | Game | Character | Sprites
Archives: 2016 | April 2016 | 20.April 2016

ANIMATIONS PREVIEW:Character Spritesheets for your mobile game assetsThis assets is for developers who want to cre...e Cartoon Mascot? Download here: SeeMore…If you have Some concern Please contact me here:http://graphicriver.net/user/pasilan
Free download Videohive Giant Afican Snail 1

Free Videohive Giant Afican Snail 1 theme download

Category: Videohive | Stock Footage
Tags: Videohive | Add Ons | nulled | free download | theme | script | rip | Giant | Afican | Snail
Archives: 2016 | April 2016 | 21.April 2016

Giant Afican Snail 14K Video down scale to FHD 1920×1080 , 29.94PDetailsVideo Encoding : PhotoJPEGCodec ID ...de : LossyBits/(Pixel*Frame) : 3.775Stream size : 700 MiB (100%)
Free download Videohive Giant Afican Snail 2

Free Videohive Giant Afican Snail 2 theme download

Category: Videohive | Stock Footage
Tags: Videohive | Add Ons | nulled | free download | theme | script | rip | Giant | Afican | Snail
Archives: 2016 | April 2016 | 21.April 2016

Giant Afican Snail 24K Video down scale to FHD 1920×1080 , 29.94PDetailsVideo Encoding : PhotoJPEGCodec ID ...de : LossyBits/(Pixel*Frame) : 2.495Stream size : 513 MiB (100%)


Free download Graphicriver Monster Stone Giant 2D Game Character Sprites 156.

Free Graphicriver Monster Stone Giant 2D Game Character Sprites 156. theme download

Category: Graphicriver | Game Assets
Archives: 2016 | April 2016 | 24.April 2016

ANIMATIONS PREVIEW:Get Awesome Stone Giant 2D Game Characters as a Characters for your games.This assets is f...e Cartoon Mascot? Download here: SeeMore…If you have Some concern Please contact me here:http://graphicriver.net/user/pasilan
Free download Videohive Alien Worlds v2 : red planet with gas giant rising

Free Videohive Alien Worlds v2 : red planet with gas giant rising theme download

Category: Videohive | Motion Graphics
Tags: gas giant | Jupiter | Mars | red | red planet | science fiction | scifi | Space | Photodune | Misc | nulled | free download | theme | script | rip | Alien | Worlds | Planet | with | Giant | Rising
Archives: 2016 | May 2016 | 01.May 2016

A desolate dry & dusty red planet , but some structures in the landscape indicate that once life existed here once . Are those canyons f...the horizon , there’s a massive gas giant rising , fuzzy behind the red haze and clouds .another great background for your scifi scenes
Free download Videohive Giant Cinematic Demo

Free Videohive Giant Cinematic Demo theme download

Category: Videohive | After Effects Project Files
Tags: 3d | Animation | Demo | Folio | Image | Opener | Parallax | Perspective | Photo | Presentation | Reel | Simple | Slideshow | Trailer | Typo | Videohive | After Effects Project Files | nulled | free download | theme | script | rip | Giant | Cinematic | Demo
Archives: 2016 | May 2016 | 11.May 2016

Very easy to Edit and CustomizeStep by Step Video TutorialDrag and Drop your Footage, Edit Text and Re...in the project. link:pixabayMusic link:Epicness bySky-ProductionsThank you!

Login Free register

Search Free Themes Download

Free Themes Download Archives

  • Mon
  • Tue
  • Wed
  • Thu
  • Fri
  • Sat
  • Sun