Free Graphicriver Giant Panda Cartoon theme download

FREE DOWNLOAD links for Giant Panda Cartoon is BELOW - click on the RED BUTTON. Logged-in users can see links to download above the main picture.

Category: Graphicriver | Vectors
Tags: Adorable | Animal | background | Bamboo | Bear | Big | Cartoon | Character | China | clip art | Cute | eating | Fat | Fun | Giant | Hungry | Illustration | isolated | mammal | mammals | Mascot | Panda | Park | Sitting | Species | Vector | White | Wildlife | Young | Zoo | Graphicriver | Vectors | nulled | free download | theme | script | rip | Giant | Panda | Cartoon
In archive: 2016 | May 2016 | 20.May 2016


Graphicriver Giant Panda Cartoon free download

Buy this item



High quality cartoon vector illustration, files can be used for all kinds of needs.

Included:
-Adobe Illustrator (.ai).
-EPS (.eps).
-High resolution JPG format (.jpg).
-Scalable Vector Graphics (.svg).

Notes:
-The Design is created in 100% vector, you can resized without loss of quality.
-Unlimited color combination is possible
-Include SVG files, SVG files you can open with Inkscape (Free Open Source Software) or proprietary software you have, and export in any image size.

Thank you and enjoy this item, dont forget to Rate 8-)

Source: graphicriver.net
Report this item


Free download

Show FREE DOWNLOAD links



Related free downloads

Free download Graphicriver Giant Outdoor Billboard Mock-Up

Free Graphicriver Giant Outdoor Billboard Mock-Up theme download

Category: Graphicriver | Graphics
Tags: Themeforest | PSD Templates | nulled | free download | theme | script | rip | Giant | Outdoor | Billboard | Mock-up
Archives: 2016 | April 2016 | 20.April 2016

Tin Giant Outdoor Billboard Mock-Up to professionally present your designs.Features1 PSD (Photoshop) file. Fully editable ...tionals with one click.Help File.*The images of the samples are not included.If you like it, don´t forget to rate, thank you.
Free download Videohive Giant Afican Snail 1

Free Videohive Giant Afican Snail 1 theme download

Category: Videohive | Stock Footage
Tags: Videohive | Add Ons | nulled | free download | theme | script | rip | Giant | Afican | Snail
Archives: 2016 | April 2016 | 21.April 2016

Giant Afican Snail 14K Video down scale to FHD 1920×1080 , 29.94PDetailsVideo Encoding : PhotoJPEGCodec ID ...de : LossyBits/(Pixel*Frame) : 3.775Stream size : 700 MiB (100%)
Free download Videohive Giant Afican Snail 2

Free Videohive Giant Afican Snail 2 theme download

Category: Videohive | Stock Footage
Tags: Videohive | Add Ons | nulled | free download | theme | script | rip | Giant | Afican | Snail
Archives: 2016 | April 2016 | 21.April 2016

Giant Afican Snail 24K Video down scale to FHD 1920×1080 , 29.94PDetailsVideo Encoding : PhotoJPEGCodec ID ...de : LossyBits/(Pixel*Frame) : 2.495Stream size : 513 MiB (100%)


Free download Videohive Alien Worlds v2 : red planet with gas giant rising

Free Videohive Alien Worlds v2 : red planet with gas giant rising theme download

Category: Videohive | Motion Graphics
Tags: gas giant | Jupiter | Mars | red | red planet | science fiction | scifi | Space | Photodune | Misc | nulled | free download | theme | script | rip | Alien | Worlds | Planet | with | Giant | Rising
Archives: 2016 | May 2016 | 01.May 2016

A desolate dry & dusty red planet , but some structures in the landscape indicate that once life existed here once . Are those canyons f...the horizon , there’s a massive gas giant rising , fuzzy behind the red haze and clouds .another great background for your scifi scenes
Free download Videohive Giant Cinematic Demo

Free Videohive Giant Cinematic Demo theme download

Category: Videohive | After Effects Project Files
Tags: 3d | Animation | Demo | Folio | Image | Opener | Parallax | Perspective | Photo | Presentation | Reel | Simple | Slideshow | Trailer | Typo | Videohive | After Effects Project Files | nulled | free download | theme | script | rip | Giant | Cinematic | Demo
Archives: 2016 | May 2016 | 11.May 2016

Very easy to Edit and CustomizeStep by Step Video TutorialDrag and Drop your Footage, Edit Text and Re...in the project. link:pixabayMusic link:Epicness bySky-ProductionsThank you!
Free download Videohive Giant Panda Bear Eating Bamboo

Free Videohive Giant Panda Bear Eating Bamboo theme download

Category: Videohive | Stock Footage
Tags: Animal | Bamboo | Bear | eating | endanger | Fat | Fur | Giant | mammals | Oriental | Panda | Park | Travel | Tree | Zoo | Videohive | Stock Footage | nulled | free download | theme | script | rip | Giant | Panda | Bear | eating | Bamboo
Archives: 2016 | May 2016 | 20.May 2016

Giant Panda Bear Eating Bamboo. Zoo in Chiang Mai, Thailand. HD, 1920×1080.
Free download Codecanyon The Panda Panda with Admob & HeyZap Ads

Free Codecanyon The Panda Panda with Admob & HeyZap Ads theme download

Category: Codecanyon | Mobile
Tags: Action | Android | apk | Arcade | Game | kung fu panda | Codecanyon | Mobile | nulled | free download | theme | script | rip | Panda | with | Admob | Heyzap
Archives: 2016 | May 2016 | 26.May 2016

The Panda is an arcade game full of challenges.the user can stay a lot of time in this game, because these characters are very famous and ...How to Reskin:this game is very easy to reskin , you can reskin it in 30 minn , just follow the document that is included with the project
Free download Videohive Giant Stone Shattering Opener

Free Videohive Giant Stone Shattering Opener theme download

Category: Videohive | After Effects Project Files
Tags: Anniversary | Business | Cinematic | Construction | Display | Ground | Intro | Logo | Particles | Promo | Reveal | Rock | Show | tittle | Trailer | Videohive | After Effects Project Files | nulled | free download | theme | script | rip | Giant | Stone | Shattering | Opener
Archives: 2016 | June 2016 | 13.June 2016

Features:NO plugin requiredWorks with any Logo,any Text,any image,Compatible with all language of After Effe...eal,photo show,video or movie trailer,anniversary,product promotion,youtube opener,game video opener,company logo,short film opener,and more.

Login Free register

Search Free Themes Download

Free Themes Download Archives

  • Mon
  • Tue
  • Wed
  • Thu
  • Fri
  • Sat
  • Sun