Free Graphicriver Giant Outdoor Billboard Mock-Up theme download

FREE DOWNLOAD links for Giant Outdoor Billboard Mock-Up is BELOW - click on the RED BUTTON. Logged-in users can see links to download above the main picture.

Category: Graphicriver | Graphics
Tags: Themeforest | PSD Templates | nulled | free download | theme | script | rip | Giant | Outdoor | Billboard | Mock-up
In archive: 2016 | April 2016 | 20.April 2016


Graphicriver Giant Outdoor Billboard Mock-Up free download

Buy this item



Tin Giant Outdoor Billboard Mock-Up to professionally present your designs.

Features

  • 1 PSD (Photoshop) file.
  • Fully editable via Smart Objects.
  • You just paste your design and enjoy.
  • Photorealistic images in natural scene.
  • High-resolution images: 2816×1722 px at 180 dpi.
  • The background in two colors: Sunset and noon.
  • The cyclist, the woman and plane are views optionals with one click.
  • Help File.

*The images of the samples are not included.

If you like it, don´t forget to rate, thank you.

Source: graphicriver.net
Report this item


Free download

Show FREE DOWNLOAD links



Related free downloads

Free download Graphicriver Billboard Mock-up Outdoor

Free Graphicriver Billboard Mock-up Outdoor theme download

Category: Graphicriver | Graphics
Tags: Themeforest | PSD Templates | nulled | free download | theme | script | rip | Billboard | Mock-up | Outdoor
Archives: 2016 | April 2016 | 20.April 2016

Outdoor Billboard Mock-UpFeatures:- 10 mock-ups (8 billboard + 2 super size)- easy edit via smart object;- real photo...lity (300 dpi);- 4928×3264 px;- simple user guide;Designs used in preview are included.Please rate it if you like it!
Free download Graphicriver Photorealistic Outdoor Billboard Mock-up Template

Free Graphicriver Photorealistic Outdoor Billboard Mock-up Template theme download

Category: Graphicriver | Graphics
Tags: Themeforest | PSD Templates | nulled | free download | theme | script | rip | Photorealistic | Outdoor | Billboard | Mock-up | Template
Archives: 2016 | April 2016 | 20.April 2016

-||- The Pack include -||-• 5 Fully Layered PSD files• 5 PSD Photorealistic Outdoor Mock-up Template• 6000×4000px• RGB, 240dpi – 300...rove the quality of my work i would appreciate if you vote for this item!Will appreciate if you rate the item!Enjoy the itemThank you!
Free download Videohive Giant Afican Snail 1

Free Videohive Giant Afican Snail 1 theme download

Category: Videohive | Stock Footage
Tags: Videohive | Add Ons | nulled | free download | theme | script | rip | Giant | Afican | Snail
Archives: 2016 | April 2016 | 21.April 2016

Giant Afican Snail 14K Video down scale to FHD 1920×1080 , 29.94PDetailsVideo Encoding : PhotoJPEGCodec ID ...de : LossyBits/(Pixel*Frame) : 3.775Stream size : 700 MiB (100%)
Free download Videohive Giant Afican Snail 2

Free Videohive Giant Afican Snail 2 theme download

Category: Videohive | Stock Footage
Tags: Videohive | Add Ons | nulled | free download | theme | script | rip | Giant | Afican | Snail
Archives: 2016 | April 2016 | 21.April 2016

Giant Afican Snail 24K Video down scale to FHD 1920×1080 , 29.94PDetailsVideo Encoding : PhotoJPEGCodec ID ...de : LossyBits/(Pixel*Frame) : 2.495Stream size : 513 MiB (100%)


Free download Graphicriver Outdoor Ad Billboard - 9 Mock-up

Free Graphicriver Outdoor Ad Billboard - 9 Mock-up theme download

Category: Graphicriver | Graphics
Tags: Videohive | Cinema 4D Templates | nulled | free download | theme | script | rip | Outdoor | Billboard | Mock-up
Archives: 2016 | April 2016 | 22.April 2016

9 Realistic Outdoor Ad Billboard MockupsRealistic reflections, huge size, versions at night and day.Every mockup is carefully lay...ze (80×120 cm)Large document size: 4000px PhotosColor effects are easily editablePhotoshop files (PSD) – Adobe CS4+PDF Help File included
Free download Videohive Alien Worlds v2 : red planet with gas giant rising

Free Videohive Alien Worlds v2 : red planet with gas giant rising theme download

Category: Videohive | Motion Graphics
Tags: gas giant | Jupiter | Mars | red | red planet | science fiction | scifi | Space | Photodune | Misc | nulled | free download | theme | script | rip | Alien | Worlds | Planet | with | Giant | Rising
Archives: 2016 | May 2016 | 01.May 2016

A desolate dry & dusty red planet , but some structures in the landscape indicate that once life existed here once . Are those canyons f...the horizon , there’s a massive gas giant rising , fuzzy behind the red haze and clouds .another great background for your scifi scenes
Free download Videohive Giant Cinematic Demo

Free Videohive Giant Cinematic Demo theme download

Category: Videohive | After Effects Project Files
Tags: 3d | Animation | Demo | Folio | Image | Opener | Parallax | Perspective | Photo | Presentation | Reel | Simple | Slideshow | Trailer | Typo | Videohive | After Effects Project Files | nulled | free download | theme | script | rip | Giant | Cinematic | Demo
Archives: 2016 | May 2016 | 11.May 2016

Very easy to Edit and CustomizeStep by Step Video TutorialDrag and Drop your Footage, Edit Text and Re...in the project. link:pixabayMusic link:Epicness bySky-ProductionsThank you!
Free download Videohive Giant Panda Bear Eating Bamboo

Free Videohive Giant Panda Bear Eating Bamboo theme download

Category: Videohive | Stock Footage
Tags: Animal | Bamboo | Bear | eating | endanger | Fat | Fur | Giant | mammals | Oriental | Panda | Park | Travel | Tree | Zoo | Videohive | Stock Footage | nulled | free download | theme | script | rip | Giant | Panda | Bear | eating | Bamboo
Archives: 2016 | May 2016 | 20.May 2016

Giant Panda Bear Eating Bamboo. Zoo in Chiang Mai, Thailand. HD, 1920×1080.

Login Free register

Search Free Themes Download

Free Themes Download Archives

  • Mon
  • Tue
  • Wed
  • Thu
  • Fri
  • Sat
  • Sun
  • 1
  • 2
  • 3
  • 4
  • 5
  • 6
  • 7
  • 8
  • 9
  • 10
  • 11
  • 12
  • 13
  • 14
  • 15
  • 16
  • 17
  • 18
  • 19
  • 20
  • 21
  • 22
  • 23
  • 24
  • 25
  • 26
  • 27
  • 28
  • 29
  • 30
  • 31