Free Videohive Giant Cinematic Demo theme download

FREE DOWNLOAD links for Giant Cinematic Demo is BELOW - click on the RED BUTTON. Logged-in users can see links to download above the main picture.

Category: Videohive | After Effects Project Files
Tags: 3d | Animation | Demo | Folio | Image | Opener | Parallax | Perspective | Photo | Presentation | Reel | Simple | Slideshow | Trailer | Typo | Videohive | After Effects Project Files | nulled | free download | theme | script | rip | Giant | Cinematic | Demo
In archive: 2016 | May 2016 | 11.May 2016


Videohive Giant Cinematic Demo free download

Buy this item



  • Very easy to Edit and Customize
  • Step by Step Video Tutorial
  • Drag and Drop your Footage, Edit Text and Render
  • Full HD
  • No plugins required
  • Compatible with After Effects CS5, CS5.5, CS6 or CC
  • Free Fonts in documentation
  • Footage used in this preview are not included in the project. link:pixabay
  • Music link:
  • Epicness bySky-Productions
  • Thank you!

    Source: videohive.net
    Report this item


    Free download

    Show FREE DOWNLOAD links



    Related free downloads

    Free download Graphicriver Giant Outdoor Billboard Mock-Up

    Free Graphicriver Giant Outdoor Billboard Mock-Up theme download

    Category: Graphicriver | Graphics
    Tags: Themeforest | PSD Templates | nulled | free download | theme | script | rip | Giant | Outdoor | Billboard | Mock-up
    Archives: 2016 | April 2016 | 20.April 2016

    Tin Giant Outdoor Billboard Mock-Up to professionally present your designs.Features1 PSD (Photoshop) file. Fully editable ...tionals with one click.Help File.*The images of the samples are not included.If you like it, don´t forget to rate, thank you.
    Free download Videohive Giant Afican Snail 1

    Free Videohive Giant Afican Snail 1 theme download

    Category: Videohive | Stock Footage
    Tags: Videohive | Add Ons | nulled | free download | theme | script | rip | Giant | Afican | Snail
    Archives: 2016 | April 2016 | 21.April 2016

    Giant Afican Snail 14K Video down scale to FHD 1920×1080 , 29.94PDetailsVideo Encoding : PhotoJPEGCodec ID ...de : LossyBits/(Pixel*Frame) : 3.775Stream size : 700 MiB (100%)
    Free download Videohive Giant Afican Snail 2

    Free Videohive Giant Afican Snail 2 theme download

    Category: Videohive | Stock Footage
    Tags: Videohive | Add Ons | nulled | free download | theme | script | rip | Giant | Afican | Snail
    Archives: 2016 | April 2016 | 21.April 2016

    Giant Afican Snail 24K Video down scale to FHD 1920×1080 , 29.94PDetailsVideo Encoding : PhotoJPEGCodec ID ...de : LossyBits/(Pixel*Frame) : 2.495Stream size : 513 MiB (100%)


    Free download Codecanyon WP Ultimate Demo - Seamless WordPress Demo Plugin

    Free Codecanyon WP Ultimate Demo - Seamless WordPress Demo Plugin theme download

    Category: Codecanyon | WordPress
    Tags: Videohive | Cinema 4D Templates | nulled | free download | theme | script | rip | Ultimate | Demo | Seamless | WordPress | Plugin
    Archives: 2016 | April 2016 | 23.April 2016

    WP Ultimate DemoWP Ultimate Demo plugin helps you create a demo website to let your potential customers try your themes and plugins in both... PHP 5.2Version 1.0 – Dec 26th, 2015Initial ReleaseWant to boost your Facebook Likes?Download Get Facebook Likes for free.
    Free download Videohive Alien Worlds v2 : red planet with gas giant rising

    Free Videohive Alien Worlds v2 : red planet with gas giant rising theme download

    Category: Videohive | Motion Graphics
    Tags: gas giant | Jupiter | Mars | red | red planet | science fiction | scifi | Space | Photodune | Misc | nulled | free download | theme | script | rip | Alien | Worlds | Planet | with | Giant | Rising
    Archives: 2016 | May 2016 | 01.May 2016

    A desolate dry & dusty red planet , but some structures in the landscape indicate that once life existed here once . Are those canyons f...the horizon , there’s a massive gas giant rising , fuzzy behind the red haze and clouds .another great background for your scifi scenes
    Free download Videohive Giant Panda Bear Eating Bamboo

    Free Videohive Giant Panda Bear Eating Bamboo theme download

    Category: Videohive | Stock Footage
    Tags: Animal | Bamboo | Bear | eating | endanger | Fat | Fur | Giant | mammals | Oriental | Panda | Park | Travel | Tree | Zoo | Videohive | Stock Footage | nulled | free download | theme | script | rip | Giant | Panda | Bear | eating | Bamboo
    Archives: 2016 | May 2016 | 20.May 2016

    Giant Panda Bear Eating Bamboo. Zoo in Chiang Mai, Thailand. HD, 1920×1080.
    Free download Graphicriver Giant Panda Cartoon

    Free Graphicriver Giant Panda Cartoon theme download

    Category: Graphicriver | Vectors
    Tags: Adorable | Animal | background | Bamboo | Bear | Big | Cartoon | Character | China | clip art | Cute | eating | Fat | Fun | Giant | Hungry | Illustration | isolated | mammal | mammals | Mascot | Panda | Park | Sitting | Species | Vector | White | Wildlife | Young | Zoo | Graphicriver | Vectors | nulled | free download | theme | script | rip | Giant | Panda | Cartoon
    Archives: 2016 | May 2016 | 20.May 2016

    High quality cartoon vector illustration, files can be used for all kinds of needs.Included:-Adobe Illustrator (.ai).-EPS (.eps). ...en Source Software) or proprietary software you have, and export in any image size.Thank you and enjoy this item, dont forget to Rate
    Free download Videohive Cinematic Demo Reel

    Free Videohive Cinematic Demo Reel theme download

    Category: Videohive | After Effects Project Files
    Tags: Cinematic | Corporate | Gallery | Glitch | light leaks | Modern | production demo | promo video | Showreel | Slideshow | Stylish | Trailer | Transitions | Videohive | After Effects Project Files | nulled | free download | theme | script | rip | Cinematic | Demo | Reel
    Archives: 2016 | November 2016 | 05.November 2016

    Hello, Everyone!Here is a Modern Demo Reel for your project!Project features:Compatible with After Effects CS5.5 , CS6 , CC ,...tivational DubstepSupport:If you need any help or having any doubts about this project. Please contact us through our profile page .

    Login Free register

    Search Free Themes Download

    Free Themes Download Archives