Free Videohive Giant Afican Snail 1 theme download

FREE DOWNLOAD links for Giant Afican Snail 1 is BELOW - click on the RED BUTTON. Logged-in users can see links to download above the main picture.

Category: Videohive | Stock Footage
Tags: Videohive | Add Ons | nulled | free download | theme | script | rip | Giant | Afican | Snail
In archive: 2016 | April 2016 | 21.April 2016


Videohive Giant Afican Snail 1 free download

Buy this item



Giant Afican Snail 14K Video down scale to FHD 1920×1080 , 29.94P

DetailsVideo Encoding : PhotoJPEGCodec ID : qtFile size : 700 MiBDuration : 25s 25msOverall bit rate mode : VariableOverall bit rate : 235 Mbps

VideoFormat : JPEGCodec ID : jpegDuration : 25s 25msBit rate mode : VariableBit rate : 235 MbpsWidth : 1 920 pixelsHeight : 1 080 pixelsDisplay aspect ratio : 16:9Frame rate mode : ConstantFrame rate : 29.970 fpsColor space : YUVChroma subsampling : 4:2:2Bit depth : 8 bitsCompression mode : LossyBits/(Pixel*Frame) : 3.775Stream size : 700 MiB (100%)

Source: videohive.net
Report this item


Free download

Show FREE DOWNLOAD links



Related free downloads

Free download Graphicriver Giant Outdoor Billboard Mock-Up

Free Graphicriver Giant Outdoor Billboard Mock-Up theme download

Category: Graphicriver | Graphics
Tags: Themeforest | PSD Templates | nulled | free download | theme | script | rip | Giant | Outdoor | Billboard | Mock-up
Archives: 2016 | April 2016 | 20.April 2016

Tin Giant Outdoor Billboard Mock-Up to professionally present your designs.Features1 PSD (Photoshop) file. Fully editable ...tionals with one click.Help File.*The images of the samples are not included.If you like it, don´t forget to rate, thank you.
Free download Videohive Giant Afican Snail 2

Free Videohive Giant Afican Snail 2 theme download

Category: Videohive | Stock Footage
Tags: Videohive | Add Ons | nulled | free download | theme | script | rip | Giant | Afican | Snail
Archives: 2016 | April 2016 | 21.April 2016

Giant Afican Snail 24K Video down scale to FHD 1920×1080 , 29.94PDetailsVideo Encoding : PhotoJPEGCodec ID ...de : LossyBits/(Pixel*Frame) : 2.495Stream size : 513 MiB (100%)


Free download Videohive Alien Worlds v2 : red planet with gas giant rising

Free Videohive Alien Worlds v2 : red planet with gas giant rising theme download

Category: Videohive | Motion Graphics
Tags: gas giant | Jupiter | Mars | red | red planet | science fiction | scifi | Space | Photodune | Misc | nulled | free download | theme | script | rip | Alien | Worlds | Planet | with | Giant | Rising
Archives: 2016 | May 2016 | 01.May 2016

A desolate dry & dusty red planet , but some structures in the landscape indicate that once life existed here once . Are those canyons f...the horizon , there’s a massive gas giant rising , fuzzy behind the red haze and clouds .another great background for your scifi scenes
Free download Videohive Giant Cinematic Demo

Free Videohive Giant Cinematic Demo theme download

Category: Videohive | After Effects Project Files
Tags: 3d | Animation | Demo | Folio | Image | Opener | Parallax | Perspective | Photo | Presentation | Reel | Simple | Slideshow | Trailer | Typo | Videohive | After Effects Project Files | nulled | free download | theme | script | rip | Giant | Cinematic | Demo
Archives: 2016 | May 2016 | 11.May 2016

Very easy to Edit and CustomizeStep by Step Video TutorialDrag and Drop your Footage, Edit Text and Re...in the project. link:pixabayMusic link:Epicness bySky-ProductionsThank you!
Free download Videohive Giant Panda Bear Eating Bamboo

Free Videohive Giant Panda Bear Eating Bamboo theme download

Category: Videohive | Stock Footage
Tags: Animal | Bamboo | Bear | eating | endanger | Fat | Fur | Giant | mammals | Oriental | Panda | Park | Travel | Tree | Zoo | Videohive | Stock Footage | nulled | free download | theme | script | rip | Giant | Panda | Bear | eating | Bamboo
Archives: 2016 | May 2016 | 20.May 2016

Giant Panda Bear Eating Bamboo. Zoo in Chiang Mai, Thailand. HD, 1920×1080.
Free download Graphicriver Giant Panda Cartoon

Free Graphicriver Giant Panda Cartoon theme download

Category: Graphicriver | Vectors
Tags: Adorable | Animal | background | Bamboo | Bear | Big | Cartoon | Character | China | clip art | Cute | eating | Fat | Fun | Giant | Hungry | Illustration | isolated | mammal | mammals | Mascot | Panda | Park | Sitting | Species | Vector | White | Wildlife | Young | Zoo | Graphicriver | Vectors | nulled | free download | theme | script | rip | Giant | Panda | Cartoon
Archives: 2016 | May 2016 | 20.May 2016

High quality cartoon vector illustration, files can be used for all kinds of needs.Included:-Adobe Illustrator (.ai).-EPS (.eps). ...en Source Software) or proprietary software you have, and export in any image size.Thank you and enjoy this item, dont forget to Rate
Free download Videohive Giant Stone Shattering Opener

Free Videohive Giant Stone Shattering Opener theme download

Category: Videohive | After Effects Project Files
Tags: Anniversary | Business | Cinematic | Construction | Display | Ground | Intro | Logo | Particles | Promo | Reveal | Rock | Show | tittle | Trailer | Videohive | After Effects Project Files | nulled | free download | theme | script | rip | Giant | Stone | Shattering | Opener
Archives: 2016 | June 2016 | 13.June 2016

Features:NO plugin requiredWorks with any Logo,any Text,any image,Compatible with all language of After Effe...eal,photo show,video or movie trailer,anniversary,product promotion,youtube opener,game video opener,company logo,short film opener,and more.

Login Free register

Search Free Themes Download

Free Themes Download Archives

  • Mon
  • Tue
  • Wed
  • Thu
  • Fri
  • Sat
  • Sun
  • 1
  • 2
  • 3
  • 4
  • 5
  • 6
  • 7
  • 8
  • 9
  • 10
  • 11
  • 12
  • 13
  • 14
  • 15
  • 16
  • 17
  • 18
  • 19
  • 20
  • 21
  • 22
  • 23
  • 24
  • 25
  • 26
  • 27
  • 28
  • 29
  • 30
  • 31