Free Videohive Big And Small Snail theme download

FREE DOWNLOAD links for Big And Small Snail is BELOW - click on the RED BUTTON. Logged-in users can see links to download above the main picture.

Category: Videohive | Stock Footage
Tags: Videohive | Add Ons | nulled | free download | theme | script | rip | Big | and | Small | Snail
In archive: 2016 | April 2016 | 21.April 2016


Videohive Big And Small Snail  free download

Buy this item



Big And Small Snail

4K Video down scale to FHD 1920×1080 , 29.94P

DetailsVideo Encoding : PhotoJPEGCodec ID : qtFile size : 951 MiBDuration : 42s 42msOverall bit rate mode : VariableOverall bit rate : 190 Mbps

VideoFormat : JPEGCodec ID : jpegDuration : 42s 42msBit rate mode : VariableBit rate : 190 MbpsWidth : 1 920 pixelsHeight : 1 080 pixelsDisplay aspect ratio : 16:9Frame rate mode : ConstantFrame rate : 29.970 fpsColor space : YUVChroma subsampling : 4:2:2Bit depth : 8 bitsCompression mode : LossyBits/(Pixel*Frame) : 3.054Stream size : 951 MiB (100%)

Source: videohive.net
Report this item


Free download

Show FREE DOWNLOAD links



Related free downloads

Free download Graphicriver Snail, Ladybug and Ants

Free Graphicriver Snail, Ladybug and Ants theme download

Category: Graphicriver | Vectors
Tags: Videohive | Add Ons | nulled | free download | theme | script | rip | Snail, | Ladybug | and | Ants
Archives: 2016 | April 2016 | 21.April 2016

Illustration of a snail, a ladybug and an ant on a white background
Free download Graphicriver Bugs and a Snail

Free Graphicriver Bugs and a Snail theme download

Category: Graphicriver | Vectors
Tags: Videohive | Add Ons | nulled | free download | theme | script | rip | Bugs | and | Snail
Archives: 2016 | April 2016 | 21.April 2016

Bugs + 1 snail with background in blach and white. Cartoon vector illustration.Folder contains:EPS file;High Resolution JPG file.
Free download Graphicriver A Lion, a Snail and a Butterfly

Free Graphicriver A Lion, a Snail and a Butterfly theme download

Category: Graphicriver | Vectors
Tags: Videohive | Add Ons | nulled | free download | theme | script | rip | Lion, | Snail | and | Butterfly
Archives: 2016 | April 2016 | 21.April 2016

Illustration of a lion, a snail and a butterfly on a white background
Free download Videohive Apple and Snail

Free Videohive Apple and Snail theme download

Category: Videohive | Stock Footage
Tags: Videohive | Add Ons | nulled | free download | theme | script | rip | Apple | and | Snail
Archives: 2016 | April 2016 | 21.April 2016

Snail is a common name that is applied most often to land snails, terrestrial pulmonate gastropod molluscs. However, the common name “snail” i...t actually gastropods, such as the Monoplacophora, which superficially resemble small limpets, may also informally be referred to as “snails”.


Free download Videohive Big Snail

Free Videohive Big Snail theme download

Category: Videohive | Stock Footage
Tags: Videohive | Add Ons | nulled | free download | theme | script | rip | Big | Snail
Archives: 2016 | April 2016 | 21.April 2016

Big SnailFull HDanimal, macro, mollusk, slow, snail, spiral,big, slow moving, green
Free download Videohive Small Snail Slow Walking

Free Videohive Small Snail Slow Walking theme download

Category: Videohive | Stock Footage
Tags: Videohive | Add Ons | nulled | free download | theme | script | rip | Small | Snail | Slow | Walking
Archives: 2016 | April 2016 | 21.April 2016

Small Snail Slow Walking4K Video down scale to FHD 1920×1080 , 29.94PDetailsVideo Encoding : PhotoJPEGCodec ID ...de : LossyBits/(Pixel*Frame) : 3.349Stream size : 812 MiB (100%)
Free download Graphicriver A Small Girl and a Small Boy Playing

Free Graphicriver A Small Girl and a Small Boy Playing theme download

Category: Graphicriver | Vectors
Tags: Videohive | Add Ons | nulled | free download | theme | script | rip | Small | Girl | and | Boy | Playing
Archives: 2016 | April 2016 | 21.April 2016

Illustration of a small girl and a small boy playing on a white background
Free download Videohive Two Big Diamonds with Many Small Gems Rotating

Free Videohive Two Big Diamonds with Many Small Gems Rotating theme download

Category: Videohive | Stock Footage
Tags: Big | bijouterie | Brilliant | Crystal | Diamond | Expensive | Gem | Gemstone | Jewel | Luxury | Precious | Rotating | Stone | Treasure | White | Videohive | Stock Footage | nulled | free download | theme | script | rip | Diamonds | with | Many | Small | Gems | Rotating
Archives: 2016 | May 2016 | 21.May 2016

Two big diamonds with many small gems rotating over white background. High quality Full HD 1080p macro shot could be used as part or backgroun...ht, many, blurred, “shallow depth of field”Video is made with Canon EOS 5D Mark II Digital SLR and EF 100mm f/2.8 USM Macro Lens on ISO 200.

Login Free register

Search Free Themes Download

Free Themes Download Archives

  • Mon
  • Tue
  • Wed
  • Thu
  • Fri
  • Sat
  • Sun
  • 1
  • 2
  • 3
  • 4
  • 5
  • 6
  • 7
  • 8
  • 9
  • 10
  • 11
  • 12
  • 13
  • 14
  • 15
  • 16
  • 17
  • 18
  • 19
  • 20
  • 21
  • 22
  • 23
  • 24
  • 25
  • 26
  • 27
  • 28
  • 29
  • 30
  • 31